[Amateur] CherryBrady E01 Cherry Brady Interview


CherryBrady.E01.Cherry.Brady.Interview.XXX.WMV-TBP

Cover:

Titel: CherryBrady E01 Cherry Brady Interview
Genre: Amateur
Sprache/n: Englisch
Größe: 558,65 MB
Parts: 6 Dateien

File: tbp.cbe01cbit.wmv
Size: 566238103 bytes (540,01 MiB), duration: 00:36:36, avg.bitrate: 2063 kb/s
Audio: wmav2, 44100 Hz, stereo, 31 kb/s
Video: vc1, yuv420p, 640×480, 29,97 fps(r)
by-blackbaba

NFO:

Code:

THE.BEST.PORN.GIVESCherryBrady.E01.Cherry.Brady.Interview.XXX.WMVTBPWEBSITE : www.CherryBrady.comTYPE : wmv
SIZE : 38 x 15MBComplete name : tbp.cbe01cbit.wmv
Format : Windows Media
File size : 540 MiB
Duration : 36mn 40s
Overall bit rate : 2 059 Kbps
Maximum Overall bit rate : 2 032 Kbps
Encoded date : UTC 19700101 00:00:00.000
WM/EncodingSettings : Lavf56.4.101
ID : 1
Format : VC1
Format profile : AdvancedL1
Codec ID : WVC1
Codec ID/Hint : Microsoft
Description of the codec : vc1
Duration : 36mn 40s
Bit rate : 1 937 Kbps
Width : 640 pixels
Height : 480 pixels
Display aspect ratio : 4:3
Frame rate : 29.970 fps
Color space : YUV
Chroma subsampling : 4:2:0
Bit depth : 8 bits
Scan type : Progressive
Compression mode : Lossy
Bits/PixelFrame : 0.210
Stream size : 508 MiB 94
ID : 2
Format : WMA
Format version : Version 2
Codec ID : 161
Codec ID/Info : Windows Media Audio
Description of the codec : Windows Media Audio V8
Duration : 36mn 40s
Bit rate : 32.0 Kbps
Channels : 2 channels
Sampling rate : 44.1 KHz
Bit depth : 16 bits
Stream size : 8.39 MiB 2
REVIEWURL :

Alle Mirror sind untereinander kompatibel!

Share-online.biz

Share-online.biz

Uploaded.net

Uploaded.net

While narrowly accurate, this deal is bush league by comparison even though the underlying abuses in both cases have had devastating consequences.