[Amateur] My Sisters First Anal 2 BTS


My.Sisters.First.Anal.2.BTS.XXX.WEBRiP.720P.X264-TBP

Cover:

Titel: My Sisters First Anal 2 BTS
Genre: Amateur
Sprache/n: Englisch
Größe: 967,9 MB
Parts: 9 Dateien

File: tbp.mysisteranal2bts.mp4
Size: 984398406 bytes (938,80 MiB), duration: 00:32:05, avg.bitrate: 4091 kb/s
Audio: aac, 48000 Hz, stereo (und)
Video: h264, yuv420p, 1280×720, 29,00 fps(r) (und)
by-blackbaba

NFO:

Code:

THE.BEST.PORN.GIVESMy.Sisters.First.Anal.2.BTS.XXX.WEBRiP.720P.X264TBPWEBSITE : http://www.data18.com/movies/1134174TYPE : mp4
SIZE : 20 x 50MBComplete name : tbp.mysisteranal2bts.mp4
Format : MPEG4
Format profile : Base Media
Codec ID : isom
File size : 939 MiB
Duration : 32mn 5s
Overall bit rate : 4 089 Kbps
Writing application : Lavf56.4.101
ID : 1
Format : AVC
Format/Info : Advanced Video Codec
Format profile : HighL3.1
Format settings CABAC : Yes
Format settings ReFrames : 4 frames
Codec ID : avc1
Codec ID/Info : Advanced Video Coding
Duration : 32mn 5s
Bit rate : 4 000 Kbps
Width : 1 280 pixels
Height : 720 pixels
Display aspect ratio : 16:9
Frame rate mode : Constant
Frame rate : 29.000 fps
Color space : YUV
Chroma subsampling : 4:2:0
Bit depth : 8 bits
Scan type : Progressive
Bits/PixelFrame : 0.150
Stream size : 908 MiB 97
Writing library : x264 core 130 r2274 c832fe9
Encoding settings : cabac1 / ref3 / deblock1:0:0 / analyse0x3:0x113 / mehex / subme7 / psy1 / psyrd1.00:0.00 / mixedref1 / merange16 / chromame1 / trellis1 / 8x8dct1 / cqm0 / deadzone2111 / fastpskip1 / chromaqpoffset2 / threads24 / lookaheadthreads4 / slicedthreads0 / nr0 / decimate1 / interlaced0 / bluraycompat0 / constrainedintra0 / bframes3 / bpyramid2 / badapt1 / bbias0 / direct1 / weightb1 / opengop0 / weightp2 / keyint250 / keyintmin25 / scenecut40 / intrarefresh0 / rclookahead40 / rcabr / mbtree1 / bitrate4000 / ratetol1.0 / qcomp0.60 / qpmin0 / qpmax69 / qpstep4 / ipratio1.40 / aq1:1.00
ID : 2
Format : AAC
Format/Info : Advanced Audio Codec
Format profile : LC
Codec ID : 40
Duration : 32mn 5s
DurationLastFrame : 21ms
Bit rate mode : Constant
Bit rate : 126 Kbps
Channels : 2 channels
Channel positions : Front: L R
Sampling rate : 48.0 KHz
Compression mode : Lossy
Stream size : 29.0 MiB 3

Alle Mirror sind untereinander kompatibel!

Uploaded.net

Uploaded.net

Share-online.biz

Share-online.biz

Discovering The Right Drain Shoes With Regards To Your En-suite Bathroom, Bear in mind that search crawlers can’t examine pictures, they could simply examine wording.